Breaking News

.....::::::CLICK HERE TO NEW ADULT SITE::::::....

Byomkesh O Chiriyakhana 2016 1080p DVDRip x264 MP4

Byomkesh O Chiriyakhana 2016 1080p DVDRip x264 MP4

General
Complete name : Byomkesh O Chiriyakhana 2016 1080p DVDRip x264 MP4
Format : MPEG-4
Format profile : Base Media
Codec ID : isom (isom/iso2/avc1/mp41)
File size : 2.18 GiB
Duration : 1 h 42 min
Overall bit rate : 3 043 kb/s
Writing application : Lavf58.10.100

Video
ID : 1
Format : AVC
Format/Info : Advanced Video Codec
Format profile : [email protected]
Format settings : CABAC / 4 Ref Frames
Format settings, CABAC : Yes
Format settings, RefFrames : 4 frames
Format settings, GOP : M=4, N=50
Codec ID : avc1
Codec ID/Info : Advanced Video Coding
Duration : 1 h 42 min
Bit rate : 3 000 kb/s
Width : 1 920 pixels
Height : 1 080 pixels
Display aspect ratio : 16:9
Frame rate mode : Constant
Frame rate : 25.000 FPS
Color space : YUV
Chroma subsampling : 4:2:0
Bit depth : 8 bits
Scan type : Progressive
Bits/(Pixel*Frame) : 0.058
Stream size : 2.13 GiB (98%)
Writing library : x264 core 148 r2795 aaa9aa8

Audio
ID : 2
Format : AAC
Format/Info : Advanced Audio Codec
Format profile : LC
Codec ID : mp4a-40-2
Duration : 1 h 42 min
Bit rate mode : Constant
Bit rate : 64.2 kb/s
Channel(s) : 2 channels
Channel positions : Front: L R
Sampling rate : 48.0 kHz
Frame rate : 46.875 FPS (1024 SPF)
Compression mode : Lossy
Stream size : 47.1 MiB (2%)
Default : Yes
Alternate group : 1

Openload Link
Clicknupload Link
Indishare Link
BDupload Link

Leave a Reply

Your email address will not be published. Required fields are marked *

*

BIGTheme.net • Free Website Templates - Downlaod Full Themes